Warning! Do NOT Download Without a VPN!
.   Location is
Your Internet Provider and Government can track your download activities! Hide your IP ADDRESS with a VPN!
We strongly recommend using CyberGhost VPN to anonymize your Downloading. It's FREE!
START YOUR FREE TRIAL NOW!

Jumanji Welcome To The Jungle 2017 1080p WEB-DL DD 5 1 X264 ESub

Torrent Details

Jumanji Welcome to the Jungle 2017 1080p WEB-DL DD 5 1 x264 ESub

NAME
Jumanji Welcome to the Jungle 2017 1080p WEB-DL DD 5 1 x264 ESub.torrent
CATEGORY
Movies
INFOHASH
b0630cdaab0794289c2322ead3afac2370a1f865
SIZE
1.4 GB in 1 file
ADDED
Uploaded on 06-03-2018 by our crawler pet called "Spidey".
SWARM
0 seeders & 0 peers
RATING
No votes yet.

Please login to vote for this torrent.


Description




General
Format : Matroska
Format version : Version 4 / Version 2
File size : 1.43 GiB
Duration : 1 h 59 min
Overall bit rate : 1 720 kb/s

Video
ID : 1
Format : AVC
Format/Info : Advanced Video Codec
Format profile : [email protected]
Format settings : CABAC / 4 Ref Frames
Format settings, CABAC : Yes
Format settings, RefFrames : 4 frames
Codec ID : V_MPEG4/ISO/AVC
Duration : 1 h 59 min
Bit rate : 1 500 kb/s
Width : 1 920 pixels
Height : 796 pixels
Display aspect ratio : 2.40:1
Frame rate mode : Constant
Frame rate : 23.976 (24000/1001) FPS
Color space : YUV
Chroma subsampling : 4:2:0
Bit depth : 8 bits
Scan type : Progressive
Bits/(Pixel*Frame) : 0.041
Stream size : 1.22 GiB (85%)
Writing library : x264 core 148 r2708 86b7198
Default : Yes
Forced : No

Audio
ID : 2
Format : AC-3
Format/Info : Audio Coding 3
Codec ID : A_AC3
Duration : 1 h 59 min
Bit rate mode : Constant
Bit rate : 256 kb/s
Channel(s) : 6 channels
Channel positions : Front: L C R, Side: L R, LFE
Sampling rate : 48.0 kHz
Frame rate : 31.250 FPS (1536 SPF)
Bit depth : 16 bits
Compression mode : Lossy
Stream size : 218 MiB (15%)
Language : English
Service kind : Complete Main
Default : Yes
Forced : No

Text
ID : 3
Format : UTF-8
Codec ID : S_TEXT/UTF8
Codec ID/Info : UTF-8 Plain Text
Duration : 1 h 50 min
Bit rate : 73 b/s
Count of elements : 2105
Stream size : 59.5 KiB (0%)
Language : English
Default : Yes
Forced : No












Discussion

Comments 0

Post Your Comment

Files in this torrent

FILENAMESIZE
Jumanji Welcome to the Jungle 2017 1080p WEB-DL DD 5.1 x264 ESub.mkv1.4 GB

Alternative Torrents for 'Jumanji Welcome to Jungle DD ESub'.

There are no alternative torrents found.